На 10 (десять) минут старше: Виолончель, Труба / Ten Minutes Older: The Cello, Trumpet (Бертолуччи, Годар, Фиггис, Дени, Менцель, Сабо, Рэдфорд, Шлендорф, Кайге, Эрисе, Херцог, Джармуш) [2002, артхаус, короткий метр, DVDRip] MVO

Страницы:  1

Ответить
Автор
Сообщение

bm11

Moderator

Стаж: 10 лет 6 месяцев

Сообщений: 19469

bm11 · 26-Янв-18 19:26 (1 год 5 месяцев назад)

На 10 (десять) минут старше: Виолончель / Ten Minutes Older: The Cello
Год выпуска: 2002
Страна: Великобритания, Германия, Испания, Нидерланды, Финляндия, Китай, Франция, Италия
Жанр: артхаус, короткий метр
Продолжительность: 01:41:36.640 (152416 frames)
Перевод: Профессиональный (многоголосый, закадровый)
Оригинальная аудиодорожка: нет
Русские субтитры: нет
Режиссер: Бертолуччи, Годар, Фиггис, Дени, Менцель, Сабо, Рэдфорд, Шлендорфф
В ролях: Валерия Бруни-Тедески, Доминик Уэст, Александра Стаден, Майкл Редфорд
Описание: В 2002 году самые значительные режиссеры современности взялись за эксперимент: ровно за десять минут экранного времени каждый из них должен был передать свое уникальное понимание времени. Так появились два полнометражных альманаха, созданные пятнадцатью законодателями мировой киномоды и вобравшие в себя все виды человеческого опыта - рождение, смерть, любовь... Никакого давления со стороны продюсеров. Никаких правил и ограничений. Кроме одного - уложиться в 10 минут. Это своего рода клип-энциклопедия ключевых стилистических приемов современного кино от Вима Вендерса до Аки Каурисмяки.
В первую часть «Виолончель» входят эпизоды: История о воде, О времени 2, Один миг, 10 минут спустя, Поезд на Нэнси, Озарение, Помешанный на звездах, Во тьме времени
Качество: DVDRip
Формат: AVI
Видео кодек: XviD
Аудио кодек: МР3
Видео: 640x480 (1.33:1), 25 fps, XviD build 73 ~887 kbps avg, 0.12 bit/pixel
Аудио: 48 kHz, MPEG Layer 3, 2 ch, ~128.00 kbps avg
Скриншоты
Медиаинфо
E:\004 Мои раздачи\На 10 минут старше 2х745\na_10_minut_starshe_violonchel_745_[torrents.ru]_by_bm11.avi
General
Complete name : E:\004 Мои раздачи\На 10 минут старше 2х745\na_10_minut_starshe_violonchel_745_[torrents.ru]_by_bm11.avi
Format : AVI
Format/Info : Audio Video Interleave
File size : 745 MiB
Duration : 1h 41mn
Overall bit rate : 1 025 Kbps
Director : bm11
Writing application : VirtualDubMod 1.5.10.3 | www.virtualdub-fr.org || (build 2550/release)
Video
Format : MPEG-4 Visual
Format profile : Streaming [email protected]
Format settings, BVOP : Yes
Format settings, QPel : No
Format settings, GMC : No warppoints
Format settings, Matrix : Custom
Codec ID : XVID
Codec ID/Hint : XviD
Duration : 1h 41mn
Bit rate : 887 Kbps
Width : 640 pixels
Height : 480 pixels
Display aspect ratio : 4/3
Frame rate : 25.000 fps
Resolution : 24 bits
Colorimetry : 4:2:0
Scan type : Progressive
Bits/(Pixel*Frame) : 0.116
Stream size : 645 MiB (87%)
Writing library : XviD 73
Audio
Format : MPEG Audio
Format version : Version 1
Format profile : Layer 3
Codec ID : 55
Codec ID/Hint : MP3
Duration : 1h 41mn
Bit rate mode : Constant
Bit rate : 128 Kbps
Minimum bit rate : 128 Kbps
Channel(s) : 2 channels
Sampling rate : 48.0 KHz
Resolution : 16 bits
Stream size : 93.0 MiB (12%)
Alignment : Aligned on interleaves
Interleave, duration : 40 ms (1.00 video frame)
Interleave, preload duration : 504 ms
Writing library : LAME3.99r
Encoding settings : CBR



На 10 (десять) минут старше: Труба / Ten Minutes Older: Trumpet
Год выпуска: 2002
Страна: Великобритания, Германия, Испания, Нидерланды, Финляндия, Китай
Жанр: артхаус, короткий метр
Продолжительность: 01:28:11.959 (132299 frames)
Перевод: Профессиональный (многоголосый, закадровый)
Оригинальная аудиодорожка: нет
Русские субтитры: нет
Режиссер: Чен Кайге, Виктор Эрисе, Вернер Херцог, Джим Джармуш, Аки Каурисмяки, Спайк Ли, Вим Вендерс
В ролях: Валерия Бруни-Тедески, Доминик Уэст, Александра Стаден, Майкл Редфорд
Описание: В 2002 году самые значительные режиссеры современности взялись за эксперимент: ровно за десять минут экранного времени каждый из них должен был передать свое уникальное понимание времени. Так появились два полнометражных альманаха, созданные пятнадцатью законодателями мировой киномоды и вобравшие в себя все виды человеческого опыта - рождение, смерть, любовь... Никакого давления со стороны продюсеров. Никаких правил и ограничений. Кроме одного - уложиться в 10 минут. Это своего рода клип-энциклопедия ключевых стилистических приемов современного кино от Вима Вендерса до Аки Каурисмяки.
Во вторую часть «Труба» входят эпизоды: Далеко спрятанные 100 цветков, Линия жизни, На десять тысяч лет старше, Ночь в трейлере, Собаки не отправляются в ад, Нас обокрали, 12 миль до Трона
Качество: DVDRip
Формат: AVI
Видео кодек: XviD
Аудио кодек: МР3
Видео: 640x480 (1.33:1), 25 fps, XviD build 73 ~1040 kbps avg, 0.14 bit/pixel
Аудио: 48 kHz, MPEG Layer 3, 2 ch, ~128.00 kbps avg
Скриншоты
Медиаинфо
E:\004 Мои раздачи\На 10 минут старше 2х745\na_10_minut_starshe_truba_745_[torrents.ru]_by_bm11.avi
General
Complete name : E:\004 Мои раздачи\На 10 минут старше 2х745\na_10_minut_starshe_truba_745_[torrents.ru]_by_bm11.avi
Format : AVI
Format/Info : Audio Video Interleave
File size : 744 MiB
Duration : 1h 28mn
Overall bit rate : 1 179 Kbps
Director : bm11
Writing application : VirtualDubMod 1.5.10.3 | www.virtualdub-fr.org || (build 2550/release)
Video
Format : MPEG-4 Visual
Format profile : Streaming [email protected]
Format settings, BVOP : Yes
Format settings, QPel : No
Format settings, GMC : No warppoints
Format settings, Matrix : Custom
Codec ID : XVID
Codec ID/Hint : XviD
Duration : 1h 28mn
Bit rate : 1 041 Kbps
Width : 640 pixels
Height : 480 pixels
Display aspect ratio : 4/3
Frame rate : 25.000 fps
Resolution : 24 bits
Colorimetry : 4:2:0
Scan type : Progressive
Bits/(Pixel*Frame) : 0.136
Stream size : 657 MiB (88%)
Writing library : XviD 73
Audio
Format : MPEG Audio
Format version : Version 1
Format profile : Layer 3
Codec ID : 55
Codec ID/Hint : MP3
Duration : 1h 28mn
Bit rate mode : Constant
Bit rate : 128 Kbps
Minimum bit rate : 128 Kbps
Channel(s) : 2 channels
Sampling rate : 48.0 KHz
Resolution : 16 bits
Stream size : 80.7 MiB (11%)
Alignment : Aligned on interleaves
Interleave, duration : 40 ms (1.00 video frame)
Interleave, preload duration : 504 ms
Writing library : LAME3.99r
Encoding settings : CBR
Download
Для скачивания .torrent файлов необходима регистрация
Сайт не распространяет и не хранит электронные версии произведений, а лишь предоставляет доступ к создаваемому пользователями каталогу ссылок на торрент-файлы, которые содержат только списки хеш-сумм
[Профиль]  [ЛС] 

eeevanka

Стаж: 3 года 4 месяца

Сообщений: 193


eeevanka · 28-Янв-18 17:48 (спустя 1 день 22 часа)

спасибо
[Профиль]  [ЛС] 
 
Ответить
Loading...
Error